2013Zone For Latest Downloads

 
     
 
Legal Downloads » Torrents » Avatar-720p MP4 AAC x264 Extended Collectors Cut BRRip 2009-CC
Menu
Home Applications
Games Movies
Music TV Shows
Torrents Graphics

Sitemap

RSS
 
Advanced Search
Last News
Site Info
Top Contributors:
  1    supper88 32766
  2    admin 32747
  3    Whisky 10080
  4    Shark_ 8911
  5    creativelivenew 8706
  6    whathesupa 2799
  7    candymypost 840
  8    hvnteam 629
  9    vuong87 3


Articles:
  This Hour: 0
  Today: 0
  This Month: 16
  All Time: 515462


Torrents:
  Today: 0
  Yesterday: 0
  All Time: 156711


Membership:
  Registered Today :0
  This Hour:0
  This Month:0
  Total:14
  Banned:1

{online}
{inform_torrent}
Friend:
Full Download Scripts
Torrent Download
Trend
Trend

Search In Site

Torrents : Avatar-720p MP4 AAC x264 Extended Collectors Cut BRRip 2009-CC
 

Torrent name:Avatar-720p MP4 AAC x264 Extended Collectors Cut BRRip 2009-CC

Seeds:2

Leechers:6

Health: 

Total size:3.52 GB

Torrent added:2012-04-15 16:00:28

Info hash:ECB32984B127718FE7524B9D0B72CFE7D436E900


Description:
 

Source: Avatar 2009 Extended Collectors Cut BluRay 720p DTS x264-3Li ( Awesome job. A BIG THANKS m8! )

Subs: Arabic, Brazilian, Bulgarian, Chinese, Croatian, Czech, Danish, Dutch, English (Foreign Only), English (Hearing Impaired), English, Estonian, Farsi-Persian, Finnish, French, German, Greek, Hebrew, Hungarian, Indonesian, Norwegian, Polish, Portuguese, Romanian, Russian (Foreign Only), Russian, Serbian (Cyrillic), Serbian, Slovenian, Spanish, Swedish, Turkish and Vietnamese.

Sample and Screens included.

General
Complete name                    : Avatar-720p MP4 AAC x264 Extended Collectors Cut BRRip 2009-CC.mp4
Format                           : MPEG-4
Format profile                   : Base Media
Codec ID                         : isom
File size                        : 3.47 GiB
Duration                         : 2h 58mn
Overall bit rate                 : 2 789 Kbps
Encoded date                     : UTC 2012-04-13 09:07:07

Video
ID                               : 1
Format                           : AVC
Format/Info                      : Advanced Video Codec
Format profile                   : [email protected]
Format settings, CABAC           : Yes
Format settings, ReFrames        : 5 frames
Codec ID                         : avc1
Codec ID/Info                    : Advanced Video Coding
Duration                         : 2h 58mn
Bit rate mode                    : Variable
Bit rate                         : 2 400 Kbps
Nominal bit rate                 : 2 421 Kbps
Maximum bit rate                 : 12.9 Mbps
Width                            : 1 280 pixels
Height                           : 720 pixels
Display aspect ratio             : 16:9
Frame rate mode                  : Variable
Frame rate                       : 23.976 fps
Minimum frame rate               : 15.932 fps
Maximum frame rate               : 24.390 fps
Resolution                       : 24 bits
Colorimetry                      : 4:2:0
Scan type                        : Progressive
Bits/(Pixel*Frame)               : 0.109
Stream size                      : 2.99 GiB (86%)
Writing library                  : x264 core 112

Audio
ID                               : 2
Format                           : AAC
Format/Info                      : Advanced Audio Codec
Format version                   : Version 4
Format profile                   : LC
Format settings, SBR             : No
Codec ID                         : 40
Duration                         : 2h 58mn
Bit rate mode                    : Variable
Bit rate                         : 384 Kbps
Maximum bit rate                 : 613 Kbps
Channel(s)                       : 6 channels
Channel positions                : Front: L C R, Rear: L R, LFE
Sampling rate                    : 48.0 KHz
Resolution                       : 16 bits
Stream size                      : 489 MiB (14%)
Language                         : English

Download utorrent client from http://www.utorrent.com/ before downloading from below magnet link


Avatar-720p MP4 AAC x264 Extended Collectors Cut BRRip 2009-CC Fast Download



 
 
 
Dear visitor, you went to the site as an unregistered user. We encourage you to register or enter the site under your name.
 
   
 
 (Votes #: 0)